Category Archives: subs,download

Suicide Squad 2016 Full Movie Online

Suicide Squad 2016 Suicide Squad 2016 Full Movie Online

Suicide Squad 2016

It is good to be the world’s most dangerous team, which arrested Super Villains, giving them the most powerful weapons to the government, and sent them on a mission to defeat the mysterious, impenetrable entities. Amanda Waller intelligence officials had discovered a secret meeting different groups, and the base without any loss will do. However, when they realized they werent chosen to succeed, or selected for their patent error when notcan be avoided if the Suicide Squad died trying to save, or to determineany of them?

Suicide Squad 2016 DTS 264 BiGDADDIVAiN

P R E and S. SN. , ,

:

Tech. o. , ,

basic information

Format: Matroska

Format version: Version 4 / Version 2

File size: MiB

Duration: 1 53 min

Overall bit rate mode: Variable

Overall bit rate: 2069 kb / s

Date coded: 14/08/2016 19:10:20 UTC

Vriting application: mkvmerge (SelamaHorizon “) 64bit

Vriting libraries:libebml + libmatroska

video

ID: 1

Format: MPEG

Format / Info: Advanced Video Codec

Format profile: / * * /

format settings,CABAC: Yes

format settings, reframes: 3 frame

Codec ID: V_MPEG4 / ISO / AVC

Duration: 1 53 min

Bit rate mode: Constant

Bitrate: 1875 kb / s

The maximum flow rate Mb / s

Width: 704 pixels

Height: 288 pixels

Display aspect ratio: 1

Frame rate mode: Variable

FPS frame rate

Color Space: IUD

Colorimetri: 4: 2: 0

Bit depth: 8 bits

Scan Type: House

Bits / (Pixel* Frame):

Stream size: MiB (91%)

Vriting libraries: core 264 148r2692 64f4e24

Default: Yes

Force: None

Color Range: Full

Primary colors:

transfercharacteristics:

Matrix coefficients:

sound

ID: 2

Format: MPEG

Format version 1

Format profile: Layer 3

Mode: Stereo

connection mode: MS Stereo

Codec ID: A_MPEG / L3

Codec ID / Hint: MP3

Duration: 1 53 min

bitmod rate: Variable

Bit Rate: 192 kb / s

Channel (s): 2 channels

Sampling: kHz

FPS frame rate (SPF 1152)

Compression: Lossy

Stream size:156 MiB (9%)

O K E N D E R S O N T E N. ,

:

…………:

: Tippers

Added: welcome for release of CPG, where appropriate summation poo no mistakejust a different set of eyes. resized, cropped and chopped plus filter Shiner The Ol ‘: lol: then take line noise that has life and sprayed them with too much shit Now what we have made of diamond: shit:

screen: